Notices

» Slysoft Recommended!
1 CLick BD and DVD backups
Download AnyDVD HD!
For Blu-Ray and DVD!
» Log in
User Name:

Password:

Not a member yet?
Register Now!
» Stats
Members: 87,852
Threads: 29,622
Posts: 251,547
Welcome to our newest member, Don_Paffi
» MPC Club Advertisers and Sponsors
Reply
 
Thread Tools
Old 13-08-11, 11:32   #1
iErwin
Premium Potential
TIP: Upgrade to Premium
Almost Active
 
Join Date: Aug 2011
Posts: 1
Contribution: 0%
Thanks: 0
Thanked 0 Times in 0 Posts
Downloads: 0
Uploads: 0
Default Dune smart d1

Hallo,

Ik probeer op mijn DUNE een mkv bestand af te spelen. Er gebeurt echter niet veel. Playback lijkt te blijven hangen aan begin van bestand. Dune firmware: 110606_1315

Format : Matroska
Format version : Version 2
File size : 5.00 GiB
Duration : 1h 21mn
Overall bit rate : 8 760 Kbps
Encoded date : UTC 2011-01-26 16:05:36
Writing application : mkvmerge v4.4.0 ('Die Wiederkehr') built on Oct 31 2010 21:52:48
Writing library : libebml v1.0.0 + libmatroska v1.0.0

Video
ID : 1
Format : AVC
Format/Info : Advanced Video Codec
Format profile : High@L4.0
Format settings, CABAC : Yes
Format settings, ReFrames : 3 frames
Format settings, GOP : M=4, N=58
Muxing mode : Header stripping
Codec ID : V_MPEG4/ISO/AVC
Duration : 1h 21mn
Bit rate mode : Variable
Bit rate : 8 137 Kbps
Maximum bit rate : 25.0 Mbps
Width : 1 920 pixels
Height : 1 080 pixels
Display aspect ratio : 16:9
Frame rate : 23.976 fps
Color space : YUV
Chroma subsampling : 4:2:0
Bit depth : 8 bits
Scan type : Progressive
Bits/(Pixel*Frame) : 0.164
Stream size : 4.64 GiB (93%)
Writing library : x264 core 105 r1732 2b04482
Encoding settings : cabac=1 / ref=3 / deblock=1:0:0 / analyse=0x3:0x133 / me=umh / subme=7 / psy=1 / psy_rd=1.00:0.00 / mixed_ref=1 / me_range=16 / chroma_me=1 / trellis=1 / 8x8dct=1 / cqm=0 / deadzone=21,11 / fast_pskip=1 / chroma_qp_offset=-2 / threads=9 / sliced_threads=0 / nr=0 / decimate=1 / interlaced=0 / constrained_intra=0 / bframes=3 / b_pyramid=0 / b_adapt=1 / b_bias=0 / direct=1 / weightb=1 / open_gop=0 / weightp=2 / keyint=240 / keyint_min=24 / scenecut=40 / intra_refresh=0 / rc_lookahead=40 / rc=crf / mbtree=1 / crf=22.0 / qcomp=0.60 / qpmin=10 / qpmax=51 / qpstep=4 / vbv_maxrate=25000 / vbv_bufsize=25000 / crf_max=0.0 / ip_ratio=1.40 / aq=1:1.00 / nal_hrd=vbr

Audio
ID : 2
Format : AC-3
Format/Info : Audio Coding 3
Mode extension : CM (complete main)
Muxing mode : Header stripping
Codec ID : A_AC3
Duration : 1h 21mn
Bit rate mode : Constant
Bit rate : 448 Kbps
Channel(s) : 6 channels
Channel positions : Front: L C R, Side: L R, LFE
Sampling rate : 48.0 KHz
Bit depth : 16 bits
Compression mode : Lossy
Stream size : 262 MiB (5%)
Language : English

Text
ID : 3
Format : UTF-8
Codec ID : S_TEXT/UTF8
Codec ID/Info : UTF-8 Plain Text
Language : Dutch

Hoor graag van iemand. Alvast bedankt
grt Erwin
iErwin is offline   Reply With Quote
Advertising
Advertising temporarily disabled
Old 27-08-11, 10:50   #2
Derantoon
Premium Potential
TIP: Upgrade to Premium
Almost Active
 
Join Date: Jun 2011
Posts: 1
Contribution: 0%
Thanks: 0
Thanked 0 Times in 0 Posts
Downloads: 0
Uploads: 0
Default Re: Dune smart d1

Tja, dat kan liggen aan een corrupt bestand. Probeer eerst eens een ander bestand zou ik zeggen.

Succes
Derantoon is offline   Reply With Quote
Old 24-09-11, 22:13   #3
Aceke
Premium Potential
TIP: Upgrade to Premium
Almost Active
 
Join Date: Sep 2011
Posts: 2
Contribution: 0%
Thanks: 0
Thanked 0 Times in 0 Posts
Downloads: 0
Uploads: 0
Default Re: Dune smart d1

Volgens mij ligt het aan de compressie van de header.

Zowel bij audio als video staat er: Muxing mode : Header stripping

Oplossing:
Probeer het bestand (de mkv file) opnieuw te muxen zonder header compressie. Dat kan via mkWDclean.exe (https://sourceforge.net/projects/mat...7.zip/download) of via MKVMerge (http://www.videohelp.com/tools/mkvtoolnix)

Het commando (vannuit cmd shell):

mkWDclean input.mkv output.mkv
mkvmerge -o output.mkv --compression -1:none input.mkv

Of makkelijk via een programma MKVMerge GUI. Na de installatie van MKVMerge, ga naar opties en vink aan : "zet verwijder kop compressie uit voor audio en video sporen". Zo staat het ineens goed en moet je het niet altijd opnieuw doen voor video en audiotracks. Voeg de file toe, en start samenvoegen.

Hopelijk werkt dit. Veel plezier
Aceke is offline   Reply With Quote
Old 24-09-11, 22:16   #4
Aceke
Premium Potential
TIP: Upgrade to Premium
Almost Active
 
Join Date: Sep 2011
Posts: 2
Contribution: 0%
Thanks: 0
Thanked 0 Times in 0 Posts
Downloads: 0
Uploads: 0
Default Re: Dune smart d1

Welke Dune hebt je trouwens. Ik wil juist mijn huidige mediacenter verkopen voor een Hdi Dune Smart BE met de veronderstelling dat deze wel elke file zonder problemen afspelen.

Ow DE smart dus. Had er eerst overgekeken
Aceke is offline   Reply With Quote
Reply


Currently Active Users Viewing This Thread: 1 (0 members and 1 guests)
 
Thread Tools

Posting Rules
You may not post new threads
You may not post replies
You may not post attachments
You may not edit your posts

BB code is On
Smilies are On
[IMG] code is On
HTML code is Off


» MPC top List...

TOP 5 Regular media players

  • Popcorn Hour C-300 (81%)
  • Mede8er Med500x2 (80%)
  • Dune SMART (D1) (65%)
  • HDI Dune Base 3.0 (52%)
  • DViCo TViX X-Roid (00%)

TOP 5 Hybrid media players

  • HDI Dune BD Prime 3.0 (75%)
  • HDI Dune HD SMART B1 (74%)
  • PoPCorn Hour C-200 (68%)
  • HDI Dune MAX (54%)

We do not recommend currently...

  • Xtreamer products
  • Hantech products
  • MViX products
  • DviCo products
  • HDX products
Powered by vBadvanced CMPS v3.2.1 - twisted by vbTwist and Hi-Jack (MPC Club)